<?xml version="1.0" standalone="no"?>
<!DOCTYPE svg PUBLIC "-//W3C//DTD SVG 1.1//EN" "http://www.w3.org/Graphics/SVG/1.1/DTD/svg11.dtd" >
<svg xmlns="http://www.w3.org/2000/svg">
<defs>
  <font id="Nucleo" horiz-adv-x="256">
    <font-face font-family="Nucleo"
      units-per-em="256" ascent="256"
      descent="0" />
    <missing-glyph horiz-adv-x="0" />
    <glyph glyph-name="ctrl-down"
      unicode="&#xEA02;"
      horiz-adv-x="256" d="M11 171.226C7.975 166.977 5.5 162.978 5.5 162.339C5.5 161.095 126.294 73 128 73C129.706 73 250.5 161.095 250.5 162.339C250.5 163.574 239.846 178.957 239 178.945C238.725 178.94 213.768 160.951 183.541 138.969C153.313 116.986 128.321 99 128.003 99C127.685 99 102.692 116.984 72.462 138.964C42.233 160.944 17.275 178.934 17 178.94C16.725 178.947 14.025 175.475 11 171.226" />
    <glyph glyph-name="arrow-right"
      unicode="&#xEA03;"
      horiz-adv-x="256" d="M152.24 209.757L144.997 202.514L176.743 170.757L208.488 139L114.744 139L21 139L21 128L21 117L114.744 117L208.488 117L176.734 85.235L144.981 53.469L152.502 45.998L160.024 38.527L204.759 83.262L249.494 127.997L205.001 172.499C180.53 196.974 160.278 217 159.996 217C159.714 217 156.223 213.741 152.24 209.757" />
    <glyph glyph-name="arrow-left"
      unicode="&#xEA04;"
      horiz-adv-x="256" d="M50.999 172.499L6.506 127.997L51.241 83.262L95.976 38.527L103.498 45.998L111.019 53.469L79.271 85.229L47.522 116.99L141.011 117.245L234.5 117.5L234.5 128L234.5 138.5L141.244 139L47.988 139.5L79.485 170.985L110.982 202.471L103.766 209.735C99.797 213.731 96.312 217 96.021 217C95.73 217 75.47 196.974 50.999 172.499" />
    <glyph glyph-name="arrow-down"
      unicode="&#xEA05;"
      horiz-adv-x="256" d="M117 141.29L117 47.512L85.235 79.266L53.469 111.019L45.998 103.498L38.527 95.976L83.263 51.24L128 6.503L172.737 51.24L217.473 95.976L210.002 103.498L202.531 111.019L170.771 79.271L139.01 47.522L138.755 141.011L138.5 234.5L127.75 234.784L117 235.068L117 141.29" />
    <glyph glyph-name="arrow-up"
      unicode="&#xEA06;"
      horiz-adv-x="256" d="M83.01 204.51L38.529 160.021L45.999 152.501L53.469 144.981L85.235 176.734L117 208.488L117 114.71L117 20.932L127.75 21.216L138.5 21.5L138.755 114.989L139.01 208.478L170.771 176.729L202.531 144.981L210.001 152.501L217.471 160.021L172.99 204.51C148.525 228.98 128.28 249 128 249C127.72 249 107.475 228.98 83.01 204.51" />
    <glyph glyph-name="ctrl-left"
      unicode="&#xEA07;"
      horiz-adv-x="256" d="M117.5 190.387C93.3 157.07 73.5 128.996 73.5 128C73.5 125.224 161.235 4.941 162.838 5.521C164.595 6.156 178.889 16.353 178.93 17C178.947 17.275 160.97 42.224 138.981 72.442C116.991 102.661 99 127.662 99 128C99 128.338 116.991 153.339 138.981 183.558C160.97 213.776 178.947 238.725 178.93 239C178.889 239.647 164.595 249.844 162.838 250.479C161.973 250.792 145.942 229.544 117.5 190.387" />
    <glyph glyph-name="ctrl-right"
      unicode="&#xEA08;"
      horiz-adv-x="256" d="M85.209 245.25C80.741 242.088 77.076 239.275 77.063 239C77.049 238.725 95.03 213.776 117.019 183.558C139.009 153.339 157 128.338 157 128C157 127.662 139.009 102.661 117.019 72.442C95.03 42.224 77.053 17.275 77.07 17C77.111 16.353 91.405 6.156 93.162 5.521C94.765 4.941 182.5 125.224 182.5 128C182.5 129.699 95.177 250.925 93.916 250.976C93.594 250.989 89.676 248.412 85.209 245.25" />
    <glyph glyph-name="ctrl-up"
      unicode="&#xEA09;"
      horiz-adv-x="256" d="M66 138.841C32.725 114.63 5.5 94.299 5.5 93.66C5.5 92.423 16.157 77.04 17 77.06C17.275 77.066 42.233 95.056 72.462 117.036C102.692 139.016 127.685 157 128.003 157C128.321 157 153.313 139.014 183.541 117.031C213.768 95.049 238.725 77.06 239 77.055C239.841 77.043 250.5 92.422 250.5 93.649C250.5 95.046 129.55 183.029 127.764 182.931C127.069 182.893 99.275 163.053 66 138.841" />
    <glyph glyph-name="upload-file"
      unicode="&#xEA0A;"
      horiz-adv-x="256" d="M99.009 220.509L70.532 192.019L77.998 184.502L85.464 176.986L101.232 192.731L117 208.477L117 136.238L117 64L128 64L139 64L139 136.238L139 208.477L154.768 192.731L170.536 176.986L178.002 184.502L185.468 192.019L156.991 220.509C141.328 236.179 128.282 249 128 249C127.718 249 114.672 236.179 99.009 220.509M44.625 147.25C41.311 135.876 8 12.999 8 12.15C8 11.29 38.216 11 128 11C212.77 11 248 11.315 248 12.073C248 12.663 240.165 41.801 230.589 76.823C221.013 111.845 212.67 142.412 212.05 144.75L210.923 149L190.961 149L171 149L171 138.5L171 128L182.755 128L194.51 128L207.596 80L220.683 32L128 32L35.317 32L48.404 80L61.49 128L73.245 128L85 128L85 138.5L85 149L65.067 149C46.945 149 45.088 148.841 44.625 147.25" />
    <glyph glyph-name="launch"
      unicode="&#xEA0B;"
      horiz-adv-x="256" d="M139 234.5L139 224L173.746 224L208.492 224L159.002 174.502L109.512 125.004L117.258 117.258L125.004 109.512L174.502 159.002L224 208.492L224 173.746L224 139L234.5 139L245 139L245 192L245 245L192 245L139 245L139 234.5M11 117.5L11 11L117.5 11L224 11L224 59L224 107L213.5 107L203 107L203 69.5L203 32L117.5 32L32 32L32 117.5L32 203L69.5 203L107 203L107 213.5L107 224L59 224L11 224L11 117.5" />
    <glyph glyph-name="refresh"
      unicode="&#xEA0E;"
      horiz-adv-x="256" d="M223.565 249.078C223.378 248.76 222.01 239.275 220.525 228C219.041 216.725 217.626 206.864 217.381 206.086C217.086 205.146 214.502 207.094 209.672 211.895C200.173 221.339 191.967 227.046 178.5 233.573C163.18 240.999 150.991 244.046 133.886 244.728C106.828 245.805 84.937 239.792 63.153 225.298C8.014 188.61 -5.685 114.158 32.758 60.107C54.788 29.133 89.957 11 128 11C171.817 11 210.62 34.54 231.851 74C239.157 87.579 245 109.19 245 122.631L245 128L234.647 128L224.293 128L223.657 120.75C221.814 99.751 212.628 78.601 198.761 63.429C176.935 39.548 143.401 27.973 112.035 33.492C100.797 35.47 95.26 37.35 84.573 42.818C59.802 55.492 42.282 77.41 34.872 105C31.608 117.154 31.595 138.756 34.846 151C39.503 168.544 51.022 187.663 63.906 199.231C89.064 221.822 124.963 229.543 157.365 219.331C167.336 216.188 173.393 213.195 182.5 206.91C190.308 201.523 203.241 189 200.998 189C200.204 189 188.849 190.42 175.765 192.155C162.681 193.89 151.688 195.021 151.336 194.669C150.702 194.036 147.787 174.866 148.257 174.425C148.8 173.914 232.44 163.107 232.83 163.497C233.634 164.301 244.38 245.953 243.763 246.571C242.896 247.438 223.982 249.786 223.565 249.078" />
    <glyph glyph-name="log-in"
      unicode="&#xEA0F;"
      horiz-adv-x="256" d="M96 245.5L96 235L160 235L224 235L224 128L224 21L160 21L96 21L96 10.5L96 0L170.5 0L245 0L245 128L245 256L170.5 256L96 256L96 245.5M109.723 189.225C106.025 185.499 103 182.015 103 181.484C103 180.952 112.333 171.176 123.741 159.759L144.482 139L77.741 139L11 139L11 128L11 117L77.741 117L144.482 117L123.741 96.241C112.333 84.824 103 75.024 103 74.464C103 73.905 106.156 70.315 110.013 66.488L117.025 59.529L151.259 93.763L185.493 127.996L151.502 161.998C132.807 180.699 117.271 196 116.979 196C116.686 196 113.421 192.951 109.723 189.225" />
    <glyph glyph-name="logout"
      unicode="&#xEA10;"
      horiz-adv-x="256" d="M43 128L43 0L128 0L213 0L213 26.5L213 53L202.5 53L192 53L192 37L192 21L128 21L64 21L64 128L64 235L128 235L192 235L192 219L192 203L202.5 203L213 203L213 229.5L213 256L128 256L43 256L43 128M173.723 178.225C170.025 174.499 167 171.016 167 170.487C167 169.957 173.857 162.656 182.238 154.262L197.476 139L146.738 139L96 139L96 128L96 117L146.738 117L197.476 117L182.238 101.738C173.857 93.344 167 86.02 167 85.461C167 84.162 180.226 71 181.532 71C182.071 71 195.332 83.825 211 99.5L239.487 128L211 156.5C195.332 172.175 182.048 185 181.48 185C180.911 185 177.421 181.951 173.723 178.225" />
    <glyph glyph-name="attachment"
      unicode="&#xEA12;"
      horiz-adv-x="256" d="M86.347 254.015C77.822 251.78 73.318 249.586 65.979 244.091C55.529 236.269 47.806 224.758 44.534 212.13C43.114 206.65 42.959 197.552 43.22 134.71L43.516 63.5L45.872 56.5C53.785 32.988 71.058 14.407 93.136 5.658C103.654 1.489 109.521 0.53 124 0.612C136.254 0.681 138.356 0.971 146.78 3.748C159.73 8.018 168.947 13.77 179.088 23.912C192.825 37.648 199.826 51.934 201.963 70.59C202.565 75.844 202.987 109.15 202.992 151.75L203 224L192 224L181 224L181 147.71C181 63.869 181.142 66.044 174.822 53.059C172.706 48.713 169.217 44.145 164.093 39.016C151.823 26.731 139.583 21.65 122.5 21.748C111.239 21.813 105.487 23.121 96.074 27.756C82.657 34.362 71.691 47.374 66.372 63C64.614 68.166 64.5 72.695 64.5 137.521L64.5 206.542L67.774 213.193C71.903 221.58 79.776 229.01 87.753 232.046C94.882 234.76 107.279 235.012 113.938 232.578C124.238 228.813 134.442 217.773 137.194 207.415C138.197 203.64 138.5 189.048 138.5 144.5C138.5 87.793 138.454 86.422 136.446 83.003C133.376 77.778 128.641 75 122.802 75C116.659 75 112.768 76.977 109.529 81.743L107 85.464L107 138.732L107 192L96 192L85 192L85.02 141.75C85.031 114.113 85.446 88.695 85.942 85.266C87.093 77.31 90.298 70.883 96.089 64.921C114.468 46.001 145.459 51.543 156.82 75.782L159.5 81.5L159.786 142.139C160.104 209.353 159.972 211.162 153.818 223.781C149.326 232.994 136.996 245.325 127.787 249.816C115.11 255.997 99.819 257.546 86.347 254.015" />
    <glyph glyph-name="settings-gear"
      unicode="&#xEA13;"
      horiz-adv-x="256" d="M97 255.336C97 253.864 92.896 221.343 92.447 219.253C92.111 217.693 89.906 215.956 85.232 213.567C81.529 211.676 76.25 208.624 73.5 206.786L68.5 203.444L50.727 210.899C39.995 215.401 32.607 217.987 32.078 217.427C31.128 216.422 2 166.147 2 165.513C2 165.3 8.863 159.944 17.25 153.609L32.5 142.092L32.394 127.94L32.288 113.788L17.894 102.828C9.977 96.8 3.138 91.513 2.696 91.08C1.832 90.233 31.14 38.787 32.803 38.232C33.352 38.049 41.325 41.072 50.521 44.95C59.717 48.827 67.668 52 68.191 52C68.713 52 71.021 50.714 73.32 49.141C75.619 47.569 80.765 44.6 84.756 42.543C89.692 39.998 92.158 38.115 92.471 36.651C92.905 34.619 97 2.08 97 0.664C97 0.299 110.95 0 128 0C145.05 0 159 0.299 159 0.664C159 2.08 163.095 34.619 163.529 36.651C163.842 38.115 166.308 39.998 171.244 42.543C175.235 44.6 180.381 47.569 182.68 49.141C184.979 50.714 187.275 52 187.781 52C188.287 52 196.228 48.824 205.427 44.942C214.626 41.06 222.609 38.036 223.167 38.222C223.965 38.488 254 89.345 254 90.43C254 90.581 247.138 95.92 238.75 102.294L223.5 113.883L223.606 128.046L223.712 142.209L238.086 153.134C245.991 159.143 252.826 164.426 253.274 164.874C254.305 165.905 224.625 217.422 222.828 217.721C222.098 217.842 213.85 214.654 204.5 210.637L187.5 203.332L182 207.029C178.975 209.063 173.695 212.14 170.268 213.869C165.99 216.026 163.884 217.715 163.553 219.255C163.104 221.343 159 253.865 159 255.336C159 255.701 145.05 256 128 256C110.95 256 97 255.701 97 255.336M140.001 233.75C140.002 233.062 140.901 225.525 142 217C143.099 208.475 143.998 201.448 143.999 201.385C143.999 201.322 147.037 200.263 150.75 199.032C159.877 196.006 168.97 190.851 176.6 184.378C180.087 181.42 183.31 179 183.763 179C184.216 179 190.962 181.7 198.754 185C206.546 188.3 213.342 191 213.855 191C214.82 191 226.55 171.14 225.878 170.643C225.67 170.489 219.72 165.952 212.655 160.56L199.809 150.757L200.539 146.129C202.173 135.771 202.543 127.453 201.716 119.689C199.985 103.43 199.003 105.718 212 95.749C218.325 90.898 224.14 86.547 224.921 86.079C226.063 85.396 225.209 83.244 220.565 75.114C217.388 69.552 214.273 65.007 213.644 65.015C213.015 65.024 206.202 67.724 198.505 71.015C190.808 74.307 184.167 77 183.747 77C183.327 77 179.852 74.37 176.024 71.157C168.076 64.483 160.459 60.21 150.75 56.977C147.037 55.741 143.999 54.678 143.999 54.615C143.998 54.552 143.099 47.525 142 39C140.901 30.475 140.002 22.937 140.001 22.25C140 21.32 136.933 21 128 21C119.067 21 116 21.32 115.999 22.25C115.998 22.937 115.099 30.475 114 39C112.901 47.525 112.002 54.552 112.001 54.615C112.001 54.678 108.963 55.741 105.25 56.977C95.541 60.21 87.924 64.483 79.976 71.157C76.148 74.37 72.673 77 72.253 77C71.833 77 65.192 74.307 57.495 71.015C49.798 67.724 42.985 65.024 42.356 65.015C41.727 65.007 38.612 69.552 35.435 75.114C30.791 83.244 29.937 85.396 31.079 86.079C31.86 86.547 37.675 90.893 44 95.737C56.987 105.683 56.128 103.7 54.295 119.5C53.328 127.835 53.609 134.216 55.468 146.129L56.191 150.757L43.345 160.56C36.28 165.952 30.33 170.489 30.122 170.643C29.45 171.14 41.18 191 42.145 191C42.658 191 49.454 188.3 57.246 185C65.038 181.7 71.784 179 72.237 179C72.69 179 75.913 181.42 79.4 184.378C87.03 190.851 96.123 196.006 105.25 199.032C108.963 200.263 112.001 201.322 112.001 201.385C112.002 201.448 112.901 208.475 114 217C115.099 225.525 115.998 233.062 115.999 233.75C116 234.68 119.067 235 128 235C136.933 235 140 234.68 140.001 233.75M121.854 169.936C110.094 168.583 96.831 159.549 90.823 148.799C81.636 132.361 84.607 111.488 98.048 98.048C122.614 73.481 164.495 87.339 170.057 121.874C173.303 142.027 160.013 162.766 140 168.778C135.042 170.268 128.415 170.69 121.854 169.936M139.344 145.815C141.458 144.37 144.383 141.458 145.844 139.344C148.141 136.02 148.5 134.486 148.5 128C148.5 121.468 148.147 119.984 145.763 116.5C144.258 114.3 141.366 111.375 139.337 110C136.197 107.873 134.506 107.5 128 107.5C121.494 107.5 119.803 107.873 116.663 110C105.382 117.643 103.643 133.49 113.054 142.9C117.779 147.625 121.79 149.097 129 148.753C134.043 148.512 136.362 147.853 139.344 145.815" />
    <glyph glyph-name="pen-2"
      unicode="&#xEA15;"
      horiz-adv-x="256" d="M106.753 164.25L22.01 79.5L14.931 44.157C11.038 24.719 8.059 8.608 8.311 8.355C8.564 8.103 24.681 11.066 44.127 14.941L79.484 21.985L164.488 106.99L249.493 191.994L221.003 220.497C205.334 236.174 192.284 249 192.004 249C191.725 249 153.361 210.863 106.753 164.25M206.007 205.493L219.485 191.987L144.381 116.883L69.277 41.779L52.47 38.391C43.226 36.528 35.515 35.152 35.333 35.333C35.152 35.515 36.528 43.225 38.391 52.468L41.778 69.273L116.637 144.137C157.809 185.311 191.727 219 192.011 219C192.295 219 198.593 212.922 206.007 205.493" />
    <glyph glyph-name="d-edit"
      unicode="&#xEA16;"
      horiz-adv-x="256" d="M138.671 186.171L75.848 123.342L67.986 91.943C63.661 74.673 60.218 60.449 60.333 60.333C60.449 60.218 74.673 63.661 91.943 67.986L123.342 75.848L186.171 138.671C220.727 173.224 249 201.949 249 202.505C249 203.816 203.8 249 202.489 249C201.942 249 173.224 220.727 138.671 186.171M211.501 210.999L219.454 202.999L210.999 194.499L202.543 185.999L194.271 194.228L185.999 202.457L194.227 210.729C198.753 215.278 202.701 219 203.001 219C203.301 219 207.126 215.4 211.501 210.999M11 112L11 11L112 11L213 11L213 59L213 107L202.5 107L192 107L192 69.5L192 32L112 32L32 32L32 112L32 192L69.5 192L107 192L107 202.5L107 213L59 213L11 213L11 112M179.517 178.983L187.487 170.966L148.994 132.66L110.5 94.355L100.691 92.07C95.296 90.813 90.635 90.032 90.333 90.333C90.032 90.635 90.813 95.296 92.071 100.691L94.357 110.5L132.411 148.75C153.341 169.787 170.708 187 171.006 187C171.304 187 175.134 183.392 179.517 178.983" />
    <glyph glyph-name="s-edit"
      unicode="&#xEA19;"
      horiz-adv-x="256" d="M224 10.6666666666667H21.3333333333333A10.666666666666666 10.666666666666666 0 0 0 10.6666666666667 21.3333333333333V224A10.666666666666666 10.666666666666666 0 0 0 21.3333333333333 234.6666666666667H138.6666666666667V213.3333333333334H32V32H213.3333333333333V138.6666666666667H234.6666666666667V21.3333333333333A10.666666666666666 10.666666666666666 0 0 0 224 10.6666666666667zM131.776 105.1093333333333L96 96L105.1093333333333 131.776L213.1413333333333 239.808A18.848 18.848 0 0 0 239.808 239.808H239.808A18.848 18.848 0 0 0 239.808 213.1413333333333z" />
    <glyph glyph-name="pen"
      unicode="&#xEA1A;"
      horiz-adv-x="256" d="M242.208 199.5413333333334L199.5413333333334 242.208A10.666666666666666 10.666666666666666 0 0 1 184.4586666666667 242.208L154.6666666666667 212.416L212.416 154.6666666666667L242.208 184.4586666666667A10.666666666666666 10.666666666666666 0 0 1 242.208 199.5413333333334zM139.584 197.3333333333334L35.1253333333333 92.8746666666667A10.666666666666666 10.666666666666666 0 0 1 32.5546666666667 88.704L11.2213333333333 24.704A10.666666666666666 10.666666666666666 0 0 1 21.3333333333333 10.6666666666667A10.527999999999999 10.527999999999999 0 0 1 24.704 11.2213333333333L88.704 32.5546666666667A10.666666666666666 10.666666666666666 0 0 1 92.8746666666667 35.1253333333333L197.3333333333333 139.584z" />
    <glyph glyph-name="settings-gear-1"
      unicode="&#xEA1B;"
      horiz-adv-x="256" d="M222.6346666666667 112.5013333333334A96.352 96.352 0 0 1 224 128A96.352 96.352 0 0 1 222.6346666666667 143.4986666666667L245.0346666666667 165.1413333333333A10.666666666666666 10.666666666666666 0 0 1 246.8586666666667 178.1333333333333L230.8586666666667 205.8666666666667A10.762666666666664 10.762666666666664 0 0 1 218.6666666666667 210.784L188.8 202.2506666666667A96.18133333333334 96.18133333333334 0 0 1 161.8453333333333 217.728L154.3466666666667 247.9146666666667A10.666666666666666 10.666666666666666 0 0 1 144 256H112A10.666666666666666 10.666666666666666 0 0 1 101.6533333333333 247.9146666666667L94.112 217.728A96.18133333333334 96.18133333333334 0 0 1 67.2 202.2506666666667L37.3333333333333 210.784A10.773333333333333 10.773333333333333 0 0 1 25.1413333333333 205.8666666666667L9.1413333333333 178.1333333333333A10.666666666666666 10.666666666666666 0 0 1 10.9653333333333 165.1306666666667L33.3653333333333 143.488A96.352 96.352 0 0 1 32 128A96.352 96.352 0 0 1 33.3653333333333 112.5013333333333L10.9653333333333 90.8586666666667A10.666666666666666 10.666666666666666 0 0 1 9.1413333333333 77.8666666666667L25.1413333333333 50.1333333333333A10.666666666666666 10.666666666666666 0 0 1 34.3893333333333 44.8A11.178666666666668 11.178666666666668 0 0 1 37.3226666666667 45.2053333333333L67.1893333333333 53.7386666666667A96.18133333333334 96.18133333333334 0 0 1 94.144 38.2613333333333L101.6853333333333 8.0746666666666A10.666666666666666 10.666666666666666 0 0 1 112 0H144A10.666666666666666 10.666666666666666 0 0 1 154.3466666666667 8.0853333333333L161.888 38.272A96.18133333333334 96.18133333333334 0 0 1 188.8 53.7493333333334L218.6666666666667 45.216A11.178666666666668 11.178666666666668 0 0 1 221.6 44.8106666666667A10.666666666666666 10.666666666666666 0 0 1 230.848 50.144L246.848 77.8773333333334A10.666666666666666 10.666666666666666 0 0 1 245.024 90.88zM128 85.3333333333333A42.666666666666664 42.666666666666664 0 1 0 170.6666666666667 128A42.666666666666664 42.666666666666664 0 0 0 128 85.3333333333333z" />
    <glyph glyph-name="d-check"
      unicode="&#xEA1C;"
      horiz-adv-x="256" d="M149.252 142.755L107.007 100.51L85.503 121.997L63.999 143.483L56.257 135.741L48.515 127.999L77.001 99.499C92.668 83.825 105.938 71 106.49 71C107.041 71 129.877 93.381 157.236 120.736L206.98 170.473L199.765 177.736C195.797 181.731 192.313 185 192.024 185C191.734 185 172.487 165.99 149.252 142.755" />
    <glyph glyph-name="n-check"
      unicode="&#xEA1D;"
      horiz-adv-x="256" d="M96.64 243.401C62.091 237.159 30.275 213.934 14.221 183.235C-1.113 153.913 -4.027 121.77 5.949 91.994C29.156 22.724 106.384 -8.986 171.167 24.155C200.067 38.939 221.89 66.132 230.473 98.05C233.301 108.572 235.333 127.55 234.469 135.388C232.944 149.229 231.718 157.056 231.007 157.496C230.576 157.762 225.865 156.972 220.54 155.74L210.858 153.5L211.435 150C212.807 141.677 213.183 120.145 212.079 113.053C205.875 73.173 173.513 40.506 133.255 33.485C83.226 24.761 33.995 58.405 23.487 108.5C21.286 118.989 21.286 137.022 23.485 147.445C30.422 180.319 54.7 207.831 86.277 218.601C101.746 223.877 116.215 225.097 133 222.542C144.005 220.866 150.587 218.746 160.89 213.556C164.954 211.509 168.554 210.247 168.89 210.751C169.225 211.256 171.71 215.184 174.412 219.48C179.136 226.993 179.25 227.345 177.412 228.726C170.228 234.121 151.604 241.012 137.615 243.452C126.728 245.35 107.299 245.326 96.64 243.401M176 180.5L117.512 122.005L96.256 143.244L74.999 164.483L67.255 156.739L59.51 148.994L88.256 120.249L117.001 91.503L183.246 157.748L249.491 223.993L241.99 231.494L234.489 238.995L176 180.5" />
    <glyph glyph-name="verified"
      unicode="&#xEA1E;"
      horiz-adv-x="256" d="M73.5 244.169L21.5 232.5L21.213 182C20.845 117.335 21.617 108.39 29.125 90.355C41.737 60.06 77.561 29.451 119.248 13.351L128 9.971L137.25 13.538C178.099 29.288 214.382 60.346 226.811 90.2C234.392 108.41 235.156 117.21 234.787 182L234.5 232.5L182.5 244.169C153.9 250.587 129.375 255.838 128 255.838C126.625 255.838 102.1 250.587 73.5 244.169M171.245 224.78L212.991 215.5L212.995 166.91C213 121.402 212.872 117.818 210.977 110.41C205.245 87.994 189.991 68.873 163.934 51.439C155.026 45.479 130.707 33 128 33C125.293 33 100.974 45.479 92.066 51.439C66.009 68.873 50.755 87.994 45.023 110.41C43.128 117.818 43 121.405 43.003 166.91L43.005 215.5L83.753 224.673C106.164 229.717 125.625 233.894 127 233.953C128.375 234.012 148.285 229.884 171.245 224.78M149.913 160.79C133.303 141.38 119.098 124.836 118.345 124.024C117.159 122.745 114.937 124.584 101.726 137.774C93.339 146.148 86.02 153 85.461 153C84.162 153 71 139.773 71 138.467C71 137.926 81.521 126.971 94.379 114.121L117.758 90.758L157.053 136.561L196.347 182.365L191.924 186.238C189.491 188.368 185.838 191.454 183.806 193.095L180.112 196.079L149.913 160.79" />
    <glyph glyph-name="e-remove"
      unicode="&#xEA21;"
      horiz-adv-x="256" d="M45.723 210.225C42.025 206.499 39 203.013 39 202.48C39 201.946 55.535 184.97 75.745 164.755L112.49 128L75.745 91.245C55.535 71.03 39 54.03 39 53.468C39 52.171 52.219 39 53.52 39C54.054 39 71.03 55.535 91.245 75.745L128 112.49L165.265 75.235L202.53 37.98L209.765 45.263C213.744 49.269 217 52.984 217 53.519C217 54.053 200.465 71.03 180.255 91.245L143.51 128L180.255 164.755C200.465 184.97 217 201.97 217 202.532C217 203.829 203.781 217 202.48 217C201.946 217 184.97 200.465 164.755 180.255L128 143.51L91.245 180.255C71.03 200.465 54.03 217 53.468 217C52.906 217 49.421 213.951 45.723 210.225" />
    <glyph glyph-name="e-add"
      unicode="&#xEA22;"
      horiz-adv-x="256" d="M117 192L117 139L64 139L11 139L11 128L11 117L64 117L117 117L117 64L117 11L128 11L139 11L139 64L139 117L192 117L245 117L245 128L245 139L192 139L139 139L139 192L139 245L128 245L117 245L117 192" />
    <glyph glyph-name="c-check"
      unicode="&#xEA26;"
      horiz-adv-x="256" d="M108.5 254.445C52.322 244.952 9.966 202.042 1.455 146C-4.588 106.211 9.673 64.918 39.355 36.262C89.265 -11.923 166.701 -11.955 216.569 36.188C251.144 69.568 264.019 118.019 250.578 164.176C240.645 198.288 215.397 227.737 182.581 243.487C160.111 254.271 132.044 258.423 108.5 254.445M139.047 233.947C155.39 232.27 173.266 225.796 187.91 216.251C195.179 211.513 211.571 195.089 216.36 187.746C228.462 169.189 234.294 149.534 234.237 127.5C234.16 97.643 222.697 71.184 200.88 50.5C159.958 11.703 96.042 11.703 55.12 50.5C33.239 71.244 21.825 97.587 21.759 127.5C21.709 149.564 27.489 169.131 39.487 187.515C44.409 195.057 60.729 211.453 68.09 216.251C85.279 227.455 105.094 233.809 126.144 234.867C127.598 234.94 133.404 234.526 139.047 233.947M149.252 142.755L107.007 100.51L85.503 121.997L63.999 143.483L56.257 135.741L48.515 127.999L77.001 99.499C92.668 83.825 105.938 71 106.49 71C107.041 71 129.877 93.381 157.236 120.736L206.98 170.473L199.765 177.736C195.797 181.731 192.313 185 192.024 185C191.734 185 172.487 165.99 149.252 142.755" />
    <glyph glyph-name="star-rate"
      unicode="&#xEA29;"
      horiz-adv-x="256" d="M120.736 236.25C117.248 225.387 110.368 203.796 105.447 188.268L96.5 160.037L48.811 159.768L1.122 159.5L37.608 131.5C57.675 116.1 74.726 103.016 75.499 102.425C76.668 101.53 74.304 93.342 61.392 53.568C52.86 27.288 46.052 5.615 46.262 5.405C46.471 5.195 64.953 18.335 87.332 34.604L128.021 64.185L168.666 34.581C191.021 18.299 209.493 5.16 209.716 5.382C209.938 5.605 203.14 27.288 194.608 53.568C181.696 93.342 179.332 101.53 180.501 102.425C181.274 103.016 198.325 116.1 218.392 131.5L254.878 159.5L207.189 159.768L159.5 160.037L150.553 188.268C132.688 244.64 128.905 256 128 256C127.493 256 124.225 247.113 120.736 236.25M136.212 163.25L143.809 139.5L168.046 139L192.284 138.5L173.392 124.086C163.001 116.159 154.399 109.608 154.275 109.528C154.152 109.449 157.581 98.497 161.897 85.192C166.213 71.886 169.52 61 169.247 61C168.973 61 159.923 67.396 149.134 75.214C138.346 83.032 128.835 89.429 128 89.429C127.165 89.429 117.654 83.032 106.866 75.214C96.077 67.396 87.025 61 86.749 61C86.473 61 89.775 71.892 94.086 85.204C98.398 98.516 101.83 109.467 101.713 109.54C101.596 109.613 92.999 116.159 82.608 124.086L63.716 138.5L87.954 139L112.191 139.5L119.788 163.25C123.966 176.312 127.661 187 128 187C128.339 187 132.034 176.312 136.212 163.25" />
    <glyph glyph-name="heart"
      unicode="&#xEA2A;"
      horiz-adv-x="256" d="M58.5 254.423C38.796 250.111 18.175 234.233 8.598 216C2.317 204.042 0.499 196.197 0.603 181.5C0.711 166.18 3.014 156.995 10.882 140.5C25.055 110.788 48.598 81.535 92.649 38.9C104.801 27.137 126.696 8 128 8C129.267 8 150.43 26.495 163.06 38.64C204.97 78.941 229.85 109.622 244.038 138.5C252.902 156.542 255.285 165.562 255.397 181.5C255.475 192.487 255.127 195.661 253.153 202C244.862 228.614 222.375 249.326 196.078 254.571C186.193 256.543 171.902 256.106 162.5 253.545C153.641 251.132 141.348 244.808 134.25 239.013L128 233.909L121.75 238.97C114.549 244.801 102.181 251.193 93.5 253.569C84.994 255.898 67.219 256.332 58.5 254.423M88.5 232.631C102.215 228.994 114.215 219.031 124.516 202.727C126.157 200.129 127.725 198.018 128 198.036C128.275 198.053 130.953 201.722 133.951 206.188C145.615 223.562 157.291 231.419 175.458 234.121C202.493 238.142 230.099 216.871 234.01 189.004C237.379 165.008 222.346 134.212 188.124 95C172.794 77.434 130.503 36 127.904 36C125.36 36 82.186 78.414 67.846 95C18.757 151.781 9.147 189.594 36.584 218.014C50.675 232.61 69.058 237.786 88.5 232.631" />
    <glyph glyph-name="eye"
      unicode="&#xEA2D;"
      horiz-adv-x="256" d="M111.795 201.451C81.768 196.775 53.44 180.002 26.319 150.842C19.185 143.171 9 129.791 9 128.09C9 124.72 24.903 105.748 38.038 93.449C66.324 66.961 96.303 53.723 128 53.723C159.697 53.723 189.721 66.982 217.955 93.449C229.954 104.697 242.228 118.897 245.873 125.75C247.32 128.469 246.667 129.914 240.115 138.5C230.06 151.678 213.029 168.233 199.5 177.981C182.405 190.299 162.571 198.606 143.341 201.505C131.556 203.281 123.461 203.267 111.795 201.451M141.795 178.129C148.332 174.757 153.645 169.426 156.708 163.165C159.032 158.415 159.474 156.228 159.469 149.505C159.461 139.741 156.91 133.269 150.692 127.235C137.39 114.329 118.61 114.329 105.308 127.235C99.063 133.294 96.531 139.745 96.568 149.5C96.623 163.984 104.059 174.513 117.882 179.679C123.39 181.737 136.442 180.891 141.795 178.129M75.969 161.472C74.546 155.336 74.834 142.057 76.531 135.542C81.187 117.668 96.668 102.187 114.542 97.531C122.061 95.573 133.939 95.573 141.458 97.531C159.983 102.356 176.21 119.244 180.037 137.68C181.237 143.46 180.873 159.333 179.436 163.921C177.745 169.319 201.624 150.179 215.011 135.407C218.305 131.772 221 128.439 221 128C221 126.898 210.767 115.771 202.962 108.387C187.112 93.391 167.503 82.042 149.598 77.5C117.917 69.463 84.002 79.915 54.948 106.668C46.292 114.639 35 126.701 35 127.976C35 129.262 47.034 142.21 54.5 148.957C60.658 154.522 76.158 166.175 76.692 165.641C76.801 165.533 76.475 163.656 75.969 161.472" />
    <glyph glyph-name="c-remove"
      unicode="&#xEA2F;"
      horiz-adv-x="256" d="M108.5 254.445C52.322 244.952 9.966 202.042 1.455 146C-4.588 106.211 9.673 64.918 39.355 36.262C89.265 -11.923 166.701 -11.955 216.569 36.188C251.144 69.568 264.019 118.019 250.578 164.176C240.645 198.288 215.397 227.737 182.581 243.487C160.111 254.271 132.044 258.423 108.5 254.445M139.047 233.947C155.39 232.27 173.266 225.796 187.91 216.251C195.179 211.513 211.571 195.089 216.36 187.746C228.462 169.189 234.294 149.534 234.237 127.5C234.16 97.643 222.697 71.184 200.88 50.5C159.958 11.703 96.042 11.703 55.12 50.5C33.239 71.244 21.825 97.587 21.759 127.5C21.709 149.564 27.489 169.131 39.487 187.515C44.409 195.057 60.729 211.453 68.09 216.251C85.279 227.455 105.094 233.809 126.144 234.867C127.598 234.94 133.404 234.526 139.047 233.947M77.723 178.225C74.025 174.499 71 171.015 71 170.484C71 169.952 80.333 160.176 91.741 148.759L112.482 128L91.741 107.241C80.333 95.824 71 86.024 71 85.464C71 84.173 84.22 71 85.516 71C86.048 71 95.824 80.333 107.241 91.741L128 112.482L148.759 91.741C160.176 80.333 169.976 71 170.536 71C171.095 71 174.68 74.15 178.5 78L185.446 85L178.481 92.25C174.649 96.238 165.216 105.913 157.518 113.752L143.522 128.004L164.261 148.761C175.667 160.177 185 169.976 185 170.536C185 171.827 171.78 185 170.484 185C169.952 185 160.176 175.667 148.759 164.259L128 143.518L107.241 164.259C95.824 175.667 86.024 185 85.464 185C84.905 185 81.421 181.951 77.723 178.225" />
    <glyph glyph-name="star-rate-1"
      unicode="&#xEA31;"
      horiz-adv-x="256" d="M160 160L128 256L96 160L0 160L76.9706666666667 101.4613333333334L45.3333333333333 4.0746666666667L128 64.1386666666667L210.6666666666667 4.0746666666667L179.0293333333333 101.4613333333334L256 160L160 160z" />
    <glyph glyph-name="c-check-1"
      unicode="&#xEA35;"
      horiz-adv-x="256" d="M128 256A128 128 0 1 1 256 128A128.37333333333333 128.37333333333333 0 0 1 128 256zM106.6666666666667 70.2506666666667L48.9173333333333 128L64 143.0826666666667L106.6666666666667 100.416L192 185.7493333333333L207.0826666666667 170.6666666666667z" />
    <glyph glyph-name="c-remove-1"
      unicode="&#xEA37;"
      horiz-adv-x="256" d="M128 256A128 128 0 1 1 256 128A128.37333333333333 128.37333333333333 0 0 1 128 256zM180.8 90.2826666666667L165.7173333333333 75.2L128 112.9173333333334L90.2826666666667 75.2L75.2 90.2826666666667L112.9173333333333 128L75.2 165.7173333333333L90.2826666666667 180.8L128 143.0826666666667L165.7173333333333 180.8L180.8 165.7173333333333L143.0826666666667 128z" />
    <glyph glyph-name="like"
      unicode="&#xEA3B;"
      horiz-adv-x="256" d="M32 160H10.6666666666667A10.666666666666666 10.666666666666666 0 0 1 0 149.3333333333333V21.3333333333333A10.666666666666666 10.666666666666666 0 0 1 10.6666666666667 10.6666666666667H42.6666666666667V149.3333333333334A10.666666666666666 10.666666666666666 0 0 1 32 160zM233.408 169.248A31.85066666666667 31.85066666666667 0 0 1 224 170.6666666666667H160V202.6666666666667C160 243.456 132.384 255.3813333333334 117.7813333333333 256A10.847999999999999 10.847999999999999 0 0 1 109.952 253.0453333333334A10.666666666666666 10.666666666666666 0 0 1 106.6666666666667 245.3333333333334V195.8613333333333L64 144.6613333333334V10.6666666666667H194.4533333333333A31.839999999999996 31.839999999999996 0 0 1 225.0666666666667 33.2586666666667L254.6026666666667 129.2586666666667A32 32 0 0 1 233.408 169.248z" />
    <glyph glyph-name="arrow-sm-down"
      unicode="&#xEA3F;"
      horiz-adv-x="256" d="M77.723 157.225C74.025 153.499 71 150.008 71 149.468C71 148.929 83.825 135.668 99.5 120L128 91.513L156.5 120C172.175 135.668 185 148.952 185 149.52C185 150.089 181.846 153.684 177.991 157.509L170.982 164.464L149.491 142.991L128 121.517L106.741 142.759C95.049 154.441 85.25 164 84.965 164C84.68 164 81.421 160.951 77.723 157.225" />
    <glyph glyph-name="arrow-sm-left"
      unicode="&#xEA40;"
      horiz-adv-x="256" d="M120 156.5L91.513 128L120 99.5C135.668 83.825 148.952 71 149.52 71C150.089 71 153.684 74.154 157.509 78.009L164.464 85.018L142.991 106.509L121.517 128L142.991 149.491L164.464 170.982L157.509 177.991C153.684 181.846 150.089 185 149.52 185C148.952 185 135.668 172.175 120 156.5" />
    <glyph glyph-name="arrow-sm-right"
      unicode="&#xEA41;"
      horiz-adv-x="256" d="M98.491 177.991L91.536 170.982L113.009 149.491L134.483 128L113.009 106.509L91.536 85.018L98.491 78.009C102.316 74.154 105.911 71 106.48 71C107.048 71 120.332 83.825 136 99.5L164.487 128L136 156.5C120.332 172.175 107.048 185 106.48 185C105.911 185 102.316 181.846 98.491 177.991" />
    <glyph glyph-name="caret-sm-up"
      unicode="&#xEA42;"
      horiz-adv-x="256" d="M99.243 135.744C83.71 120.202 71 107.028 71 106.467C71 105.906 74.154 102.316 78.009 98.491L85.018 91.536L106.509 113.009L128 134.483L149.491 113.009L170.982 91.536L177.991 98.491C181.846 102.316 185 105.911 185 106.48C185 107.485 128.984 164 127.987 164C127.712 164 114.777 151.285 99.243 135.744" />
    <glyph glyph-name="cycle"
      unicode="&#xEA43;"
      horiz-adv-x="256" d="M67.006 231.506L59.543 223.993L69.851 213.65L80.159 203.306L71.273 202.731C59.604 201.975 51.38 199.802 41 194.732C34.038 191.332 30.762 188.855 22.895 181.04C12.058 170.276 7.018 162.252 3.094 149.513C0.965 142.6 0.628 139.577 0.639 127.5C0.65 115.205 0.962 112.566 3.193 105.833C10.215 84.649 27.089 66.562 47.26 58.598C57.764 54.45 63.935 53.65 86 53.572L106.5 53.5L106.5 64L106.5 74.5L84 75.03C63.504 75.513 61.01 75.764 56 77.851C31.396 88.102 17.357 113.056 22.368 137.632C24.425 147.722 28.774 156.497 35.202 163.531C41.578 170.507 47.087 174.328 55.74 177.775L62.5 180.468L97.259 180.984L132.017 181.5L103.243 210.259L74.469 239.019L67.006 231.506M149.47 201.783C149.168 200.995 149.051 196.109 149.21 190.925L149.5 181.5L171.5 180.95C192.359 180.428 193.856 180.26 200.363 177.702C235.537 163.876 245.922 119.632 220.451 92.121C213.78 84.915 207.285 80.613 198.276 77.434C191.645 75.093 190.772 75.042 157.506 75.021L123.513 75L152.499 46.001L181.485 17.002L188.98 24.496L196.474 31.99L186.142 42.358L175.81 52.725L184.155 53.445C205.626 55.296 218.756 60.938 232.868 74.379C249.007 89.75 256.9700000000001 109.85 255.697 132C254.542 152.087 248.035 166.211 233.105 181.04C225.235 188.858 221.965 191.33 215 194.73C201.254 201.44 197.358 202.169 172.26 202.724C153.551 203.138 149.933 202.989 149.47 201.783" />
    <glyph glyph-name="img-stack"
      unicode="&#xEA45;"
      horiz-adv-x="256" d="M53 245.5L53 235L128 235L203 235L203 245.5L203 256L128 256L53 256L53 245.5M0 106.5L0 0L128 0L256 0L256 106.5L256 213L128 213L0 213L0 106.5M234.756 106.75L234.5 21.5L127.75 21.245L21 20.991L21 106.495L21 192L128.006 192L235.011 192L234.756 106.75M70.5 170.065C50.437 165.181 47.275 139.373 65.64 130.388C75.83 125.402 86.827 128.729 92.574 138.536C99.721 150.732 94.023 165.54 80.655 169.51C75.202 171.129 74.932 171.144 70.5 170.065M100.181 99.79L36.905 43.5L82.377 43.24C107.386 43.097 148.527 43.097 173.801 43.24L219.754 43.5L191.605 99.79L163.457 156.079L100.181 99.79M171.054 92.891C178.788 77.431 184.935 64.602 184.714 64.381C184.494 64.16 163.707 64.097 138.521 64.24L92.73 64.5L124.414 92.75C141.84 108.287 156.299 121 156.545 121C156.792 121 163.321 108.351 171.054 92.891" />
    <glyph glyph-name="dashboard"
      unicode="&#xEA47;"
      horiz-adv-x="256" d="M108.5 254.445C52.322 244.952 9.966 202.042 1.455 146C-4.588 106.211 9.673 64.918 39.355 36.262C89.265 -11.923 166.701 -11.955 216.569 36.188C251.144 69.568 264.019 118.019 250.578 164.176C240.645 198.288 215.397 227.737 182.581 243.487C160.111 254.271 132.044 258.423 108.5 254.445M139.047 233.947C155.39 232.27 173.266 225.796 187.91 216.251C195.179 211.513 211.571 195.089 216.36 187.746C230.676 165.794 236.725 139.889 233.638 113.75L232.841 107L183.505 107L134.17 107L110.472 149.75C97.438 173.263 86.127 193.531 85.337 194.792L83.899 197.084L76.199 192.902C71.965 190.602 67.866 188.133 67.09 187.415C65.894 186.307 68.964 180.196 87.34 147.104C99.253 125.651 109 107.851 109 107.549C109 107.247 89.686 107 66.08 107L23.159 107L22.362 113.75C19.279 139.858 25.294 165.766 39.487 187.515C44.409 195.057 60.729 211.453 68.09 216.251C85.279 227.455 105.094 233.809 126.144 234.867C127.598 234.94 133.404 234.526 139.047 233.947M224.986 84.25C224.978 83.838 223.167 80.189 220.961 76.141C204.519 45.979 173.41 25.551 138.509 22.001C96.495 17.727 55.063 39.406 35.039 76.141C32.833 80.189 31.022 83.838 31.014 84.25C31.006 84.662 74.65 85 128 85C181.35 85 224.994 84.662 224.986 84.25" />
    <glyph glyph-name="box-2"
      unicode="&#xEA48;"
      horiz-adv-x="256" d="M35.25 226.443L0 196.973L0 98.487L0 0L128 0L256 0L256 98.488L256 196.976L220.607 226.488L185.214 256L127.857 255.957L70.5 255.913L35.25 226.443M100.951 233.75C100.924 233.062 98.272 225.975 95.058 218L89.213 203.5L64.922 203.232C51.561 203.084 40.826 203.158 41.065 203.396C41.304 203.633 49.825 210.825 60 219.377L78.5 234.925L89.75 234.963C98.129 234.99 100.987 234.681 100.951 233.75M137.605 219L143.804 203.5L135.902 203.21C131.556 203.05 124.442 203.05 120.093 203.21L112.186 203.5L117.578 217C125.431 236.665 124.54 235.172 128.21 234.813C131.342 234.506 131.528 234.193 137.605 219M194.829 220.25C204.51 212.138 213.121 204.947 213.965 204.271C215.188 203.291 210.546 203.088 191.143 203.271L166.787 203.5L160.942 218C157.728 225.975 155.076 233.062 155.049 233.75C155.013 234.678 157.863 235 166.114 235L177.228 235L194.829 220.25M85 144L85 107L128 107L171 107L171 144L171 181L203.006 181L235.012 181L234.756 101.25L234.5 21.5L127.75 21.245L21 20.991L21 100.995L21 181L53 181L85 181L85 144M149 154.5L149 128L128 128L107 128L107 154.5L107 181L128 181L149 181L149 154.5" />
    <glyph glyph-name="a-edit"
      unicode="&#xEA4A;"
      horiz-adv-x="256" d="M93.5 254.523C68.951 249.132 49.768 230.324 44.453 206.435C43.127 200.471 42.861 195.423 43.202 182.681C43.598 167.873 43.89 165.771 46.645 157.904C50.312 147.433 55.234 138.51 61.838 130.362L66.812 124.223L60.656 123.048C49.179 120.856 28.535 114.794 23.004 111.991C15.052 107.961 8.319 100.846 4.088 92L0.5 84.5L0.187 52.75L-0.127 21L47.937 21L96 21L96 32L96 43L58.5 43L21 43L21 58.451C21 77.943 21.936 82.51 27.145 88.427C30.807 92.588 32.11 93.277 42.325 96.458C60.982 102.268 78.596 105.344 99.5 106.441C123.564 107.704 132.51 111.31 146.548 125.406C154.079 132.968 156.471 136.194 160.744 144.55C168.617 159.949 170.442 168.105 170.353 187.5C170.287 201.945 170.024 204.285 167.651 211.578C162.368 227.81 150.171 241.803 134.269 249.874C123.689 255.244 105.978 257.264 93.5 254.523M121.784 231.781C133.811 227.342 144.356 215.853 147.605 203.648C149.535 196.401 149.424 175.432 147.415 167.644C143.763 153.489 131.314 136.747 120.51 131.461C105.611 124.172 90.418 128.78 77.829 144.406C68.888 155.505 65.109 165.893 64.304 181.581C63.289 201.381 66.59 211.928 76.952 221.989C89.389 234.065 105.855 237.662 121.784 231.781M164.745 84.245L128 47.49L128 23.745L128 0L151.755 0L175.51 0L212.255 36.755C232.465 56.97 249 73.961 249 74.513C249 75.82 203.794 121 202.487 121C201.939 121 184.955 104.46 164.745 84.245M211.508 82.992L219.47 74.983L192.492 47.992L165.514 21L157.257 21L149 21L149 29.243L149 37.486L175.743 64.243C190.452 78.959 202.725 91 203.017 91C203.308 91 207.13 87.396 211.508 82.992" />
    <glyph glyph-name="triangle-sm-down"
      unicode="&#xEA4B;"
      horiz-adv-x="256" d="M48 176L128 80L208 176z" />
    <glyph glyph-name="arrow-e"
      unicode="&#xEA50;"
      horiz-adv-x="256" d="M256 128L149.3333333333333 202.6666666666667V138.6666666666667H10.6666666666667C4.768 138.6666666666667 0 133.888 0 128S4.768 117.3333333333334 10.6666666666667 117.3333333333334H149.3333333333333V53.3333333333333L256 128z" />
    <glyph glyph-name="arrow-w-1"
      unicode="&#xEA53;"
      horiz-adv-x="256" d="M0 128L106.6666666666667 202.6666666666667V138.6666666666667H245.3333333333333C251.232 138.6666666666667 256 133.888 256 128S251.232 117.3333333333334 245.3333333333333 117.3333333333334H106.6666666666667V53.3333333333333L0 128z" />
    <glyph glyph-name="triangle-sm-right"
      unicode="&#xEA54;"
      horiz-adv-x="256" d="M80 48L176 128L80 208z" />
    <glyph glyph-name="zoom-1"
      unicode="&#xEA55;"
      horiz-adv-x="256" d="M203.2 75.2C217.6 94.4 225.6 116.8 225.6 142.4C225.6 204.8 176 256 113.6 256S0 204.8 0 142.4C0 80 51.2 28.8 113.6 28.8C139.2 28.8 163.2 36.8 180.8 51.2L228.8 3.2C232 0 236.8 -1.6 240 -1.6S248 0 251.2 3.2C257.6 9.6000000000001 257.6 19.2 251.2 25.6000000000001L203.2 75.2zM113.6 62.4C68.8 62.4 32 97.6 32 142.4S68.8 224 113.6 224S195.2 187.2 195.2 142.4S158.4 62.4 113.6 62.4z" />
    <glyph glyph-name="bag-20"
      unicode="&#xEA56;"
      horiz-adv-x="256" d="M117.5 255.028C105.86 252.447 97.811 247.769 89.293 238.633C80.347 229.038 75 217.132 75 206.806L75 203.033L48.25 202.766L21.5 202.5L21.245 101.25L20.99 0L128 0L235.01 0L234.755 101.25L234.5 202.5L207.75 202.766L181 203.033L181 206.806C181 217.132 175.653 229.038 166.707 238.633C156.093 250.017 145.711 254.86 130.5 255.522C125.55 255.738 119.7 255.515 117.5 255.028M141 231.868C150.177 227.868 157.927 217.564 159.593 207.147L160.256 203L128 203L95.744 203L96.417 207.208C98.504 220.258 108.88 231.41 121.344 234C126.985 235.172 135.552 234.243 141 231.868M75 165L75 149L85.5 149L96 149L96 165L96 181L128 181L160 181L160 165L160 149L170.5 149L181 149L181 165L181 181L197 181L213 181L213 101L213 21L128 21L43 21L43 101L43 181L59 181L75 181L75 165" />
    <glyph glyph-name="phone"
      unicode="&#xEA57;"
      horiz-adv-x="256" d="M166.816 102.3253333333333L141.696 77.568A203.85066666666668 203.85066666666668 0 0 0 105.4293333333333 105.44A206.43200000000004 206.43200000000004 0 0 0 77.568 141.7066666666667L102.304 166.8266666666667A10.773333333333333 10.773333333333333 0 0 1 104.5226666666667 178.56L78.7413333333333 238.784A10.762666666666664 10.762666666666664 0 0 1 66.1333333333333 244.9493333333334L18.7306666666667 232.4373333333334A10.741333333333332 10.741333333333332 0 0 1 10.6666666666667 221.6746666666667A227.59466666666665 227.59466666666665 0 0 1 75.0826666666667 75.104A227.616 227.616 0 0 1 221.696 10.6666666666667A10.783999999999999 10.783999999999999 0 0 1 232.4693333333333 18.7306666666667L244.9706666666667 66.0906666666667A10.762666666666664 10.762666666666664 0 0 1 238.816 78.7413333333333L178.6453333333333 104.5333333333334A10.762666666666664 10.762666666666664 0 0 1 166.816 102.3253333333333z" />
    <glyph glyph-name="pin-3-1"
      unicode="&#xEA59;"
      horiz-adv-x="256" d="M128 256C65.6 256 16 206.4 16 144C16 113.6 27.2 84.8 49.6 64C51.2 62.4 115.2 4.8 116.8 3.2C123.2 -1.6 132.8 -1.6 137.6 3.2C139.2 4.8 204.8 62.4 204.8 64C227.2 84.8 238.4 113.6 238.4 144C240 206.4 190.4 256 128 256zM128 112C110.4 112 96 126.4 96 144S110.4 176 128 176C145.6 176 160 161.6 160 144S145.6 112 128 112z" />
    <glyph glyph-name="n-check-1"
      unicode="&#xEA5A;"
      horiz-adv-x="256" d="M91.2 139.2C84.8 145.6 75.2 145.6 68.8 139.2S62.4 123.2 68.8 116.8L100.8 84.8C104 81.6 107.2 80 112 80S120 81.6 123.2 84.8L235.2 196.8C241.6 203.2 241.6 212.8 235.2 219.2S219.2 225.6 212.8 219.2L112 118.4L91.2 139.2zM112 0C174.4 0 224 49.6 224 112C224 121.6 217.6 128 208 128S192 121.6 192 112C192 67.2 156.8 32 112 32S32 67.2 32 112S67.2 192 112 192C121.6 192 129.6 190.4 139.2 187.2C147.2 184 156.8 188.8 160 196.8C163.2 204.8 158.4 214.4 150.4 217.6C137.6 222.4 124.8 224 112 224C49.6 224 0 174.4 0 112S49.6 0 112 0z" />
    <glyph glyph-name="cogwheel"
      unicode="&#xEA5B;"
      horiz-adv-x="256" d="M249.936 143.76L221.136 150.976A95.872 95.872 0 0 1 210.08 177.6L225.376 203.088A8 8 0 0 1 224.176 212.864L212.8 224.176A8 8 0 0 1 203.024 225.376L177.6 210.08A95.84 95.84 0 0 1 150.976 221.12L143.76 249.936A8 8 0 0 1 136 256H120A8 8 0 0 1 112.24 249.936L105.024 221.136A95.872 95.872 0 0 1 78.4 210.08L52.912 225.376A8 8 0 0 1 43.136 224.176L31.824 212.8A8 8 0 0 1 30.624 203.024L45.92 177.6A95.84 95.84 0 0 1 34.88 150.976L6.08 143.76A8 8 0 0 1 0 136V120A8 8 0 0 1 6.064 112.24L34.864 105.024A95.872 95.872 0 0 1 45.92 78.4L30.624 52.912A8 8 0 0 1 31.824 43.136L43.136 31.824A8 8 0 0 1 52.912 30.624L78.4 45.92A95.84 95.84 0 0 1 105.024 34.88L112.24 6.08A8 8 0 0 1 120 0H136A8 8 0 0 1 143.76 6.064L150.976 34.864A95.84 95.84 0 0 1 177.6 45.904L203.088 30.608A8 8 0 0 1 212.864 31.808L224.176 43.12A8 8 0 0 1 225.376 52.896L210.08 78.4A95.84 95.84 0 0 1 221.12 105.024L249.92 112.24A8 8 0 0 1 256 120V136A8 8 0 0 1 249.936 143.76zM128 80A48 48 0 1 0 176 128A48 48 0 0 0 128 80z" />
    <glyph glyph-name="mail"
      unicode="&#xEA5C;"
      horiz-adv-x="256" d="M224 234.6666666666667H32A32 32 0 0 1 0 202.6666666666667V53.3333333333333A32 32 0 0 1 32 21.3333333333333H224A32 32 0 0 1 256 53.3333333333333V202.6666666666667A32 32 0 0 1 224 234.6666666666667zM220.8 183.4666666666667L135.4666666666667 108.8A19.776 19.776 0 0 0 128 106.6666666666667A19.776 19.776 0 0 0 120.5333333333334 108.8L35.2 183.4666666666667A10.581333333333331 10.581333333333331 0 0 0 49.0666666666667 199.4666666666667L126.9333333333333 131.2L204.8 199.4666666666667A10.367999999999999 10.367999999999999 0 0 0 219.7333333333333 198.4A9.6 9.6 0 0 0 220.8 183.4666666666667z" />
    <glyph glyph-name="letter"
      unicode="&#xEA5D;"
      horiz-adv-x="256" d="M142.9333333333333 100.2666666666667A24.53333333333333 24.53333333333333 0 0 0 128 96A24.53333333333333 24.53333333333333 0 0 0 113.0666666666667 100.2666666666667L0 161.0666666666667V53.3333333333333A32 32 0 0 1 32 21.3333333333333H224A32 32 0 0 1 256 53.3333333333333V161.0666666666667zM224 234.6666666666667H32A32 32 0 0 1 0 202.6666666666667V192A11.199999999999998 11.199999999999998 0 0 1 5.3333333333333 182.4L122.6666666666667 118.4A9.6 9.6 0 0 1 128 117.3333333333334A9.6 9.6 0 0 1 133.3333333333333 118.4L250.6666666666667 182.4A11.199999999999998 11.199999999999998 0 0 1 256 192V202.6666666666667A32 32 0 0 1 224 234.6666666666667z" />
    <glyph glyph-name="email"
      unicode="&#xEA5E;"
      horiz-adv-x="256" d="M224 234.6666666666667H32A32 32 0 0 1 0 202.6666666666667V53.3333333333333A32 32 0 0 1 32 21.3333333333333H224A32 32 0 0 1 256 53.3333333333333V202.6666666666667A32 32 0 0 1 224 234.6666666666667zM87.5413333333333 93.792L60.8746666666667 67.1253333333334A10.666666666666666 10.666666666666666 0 0 0 45.792 82.208L72.4586666666667 108.8746666666667zM210.208 67.1253333333334A10.666666666666666 10.666666666666666 0 0 0 195.1253333333334 67.1253333333334L168.4586666666667 93.792L183.5413333333334 108.8746666666667L210.208 82.208A10.666666666666666 10.666666666666666 0 0 0 210.208 67.1253333333334zM210.208 173.792L135.5413333333334 99.1253333333334A10.666666666666666 10.666666666666666 0 0 0 120.4586666666667 99.1253333333334L45.792 173.792A10.666666666666666 10.666666666666666 0 0 0 60.8746666666667 188.8746666666667L128 121.7493333333334L195.1253333333334 188.8746666666667A10.666666666666666 10.666666666666666 0 1 0 210.208 173.792z" />
  </font>
</defs>
</svg>
